<?xml version="1.0" standalone="no"?>
<!DOCTYPE svg PUBLIC "-//W3C//DTD SVG 1.1//EN" "http://www.w3.org/Graphics/SVG/1.1/DTD/svg11.dtd" >
<svg xmlns="http://www.w3.org/2000/svg">
<metadata>
This is a custom SVG font generated by IcoMoon.
<iconset grid="14"></iconset>
</metadata>
<defs>
<font id="Podlove" horiz-adv-x="448" >
<font-face units-per-em="448" ascent="384" descent="-64" />
<missing-glyph horiz-adv-x="448" />
<glyph class="hidden" unicode="&#xf000;" d="M0,384L 448 -64L0 -64 z" horiz-adv-x="0" />
<glyph unicode="&#xf0c9;" d="M 384,48l0-32 q0-6.5 -4.75-11.25t-11.25-4.75l-352,0 q-6.5,0 -11.25,4.75t-4.75,11.25l0,32 q0,6.5 4.75,11.25t 11.25,4.75l 352,0 q 6.5,0 11.25-4.75t 4.75-11.25zM 384,176l0-32 q0-6.5 -4.75-11.25t-11.25-4.75l-352,0 q-6.5,0 -11.25,4.75t-4.75,11.25l0,32 q0,6.5 4.75,11.25t 11.25,4.75l 352,0 q 6.5,0 11.25-4.75t 4.75-11.25zM 384,304l0-32 q0-6.5 -4.75-11.25 t-11.25-4.75l-352,0 q-6.5,0 -11.25,4.75t-4.75,11.25l0,32 q0,6.5 4.75,11.25t 11.25,4.75l 352,0 q 6.5,0 11.25-4.75t 4.75-11.25z" horiz-adv-x="384" data-tags="reorder, list, menu" />
<glyph unicode="&#xf00c;" d="M 417.75,242.5q0-10 -7-17l-181-181l-34-34q-7-7 -17-7t-17,7l-34,34l-90.5,90.5q-7,7 -7,17t 7,17l 34,34q 7,7 17,7t 17-7l 73.5-73.75l 164,164.25q 7,7 17,7t 17-7l 34-34q 7-7 7-17z" data-tags="ok, checkmark, tick, correct" />
<glyph unicode="&#xf00d;" d="M 324.5,53.5q0-10 -7-17l-34-34q-7-7 -17-7t-17,7l-73.5,73.5l-73.5-73.5q-7-7 -17-7t-17,7l-34,34q-7,7 -7,17t 7,17l 73.5,73.5l-73.5,73.5q-7,7 -7,17t 7,17l 34,34q 7,7 17,7t 17-7l 73.5-73.5l 73.5,73.5q 7,7 17,7t 17-7l 34-34q 7-7 7-17 t-7-17l-73.5-73.5l 73.5-73.5q 7-7 7-17z" horiz-adv-x="352" data-tags="remove, cancel, close, delete, mutiply" />
<glyph unicode="&#xf068;" d="M 352,200l0-48 q0-10 -7-17t-17-7l-304,0 q-10,0 -17,7t-7,17l0,48 q0,10 7,17t 17,7l 304,0 q 10,0 17-7t 7-17z" horiz-adv-x="352" data-tags="minus, remove, delete, subtract" />
<glyph unicode="&#xf110;" d="M 124,48q0-15 -10.625-25.5t-25.375-10.5q-15,0 -25.5,10.5t-10.5,25.5t 10.5,25.5t 25.5,10.5q 14.75,0 25.375-10.5t 10.625-25.5zM 232,0q0-13.25 -9.375-22.625t-22.625-9.375t-22.625,9.375t-9.375,22.625t 9.375,22.625t 22.625,9.375t 22.625-9.375t 9.375-22.625zM 80,160q0-16.5 -11.75-28.25t-28.25-11.75t-28.25,11.75t-11.75,28.25 t 11.75,28.25t 28.25,11.75t 28.25-11.75t 11.75-28.25zM 340,48q0-11.5 -8.25-19.75t-19.75-8.25t-19.75,8.25t-8.25,19.75t 8.25,19.75t 19.75,8.25t 19.75-8.25t 8.25-19.75zM 132,272q0-18.25 -12.875-31.125t-31.125-12.875t-31.125,12.875t-12.875,31.125t 12.875,31.125t 31.125,12.875t 31.125-12.875t 12.875-31.125zM 248,320q0-20 -14-34t-34-14 t-34,14t-14,34t 14,34t 34,14t 34-14t 14-34zM 384,160q0-10 -7-17t-17-7t-17,7t-7,17t 7,17t 17,7t 17-7t 7-17zM 332,272q0-8.25 -5.875-14.125t-14.125-5.875t-14.125,5.875t-5.875,14.125t 5.875,14.125t 14.125,5.875t 14.125-5.875t 5.875-14.125z" horiz-adv-x="392" data-tags="spinner, loading, busy, progress" />
<glyph unicode="&#xf112;" d="M 448,104q0-41.5 -31.75-112.75q-0.75-1.75 -2.625-6t-3.375-7.5t-3.25-5.5q-3-4.25 -7-4.25q-3.75,0 -5.875,2.5t-2.125,6.25q0,2.25 0.625,6.625t 0.625,5.875q 1.25,17 1.25,30.75q0,25.25 -4.375,45.25t-12.125,34.625t-20,25.25t-26.375,17.375t-33.25,10.625t-38.5,5.375t-43.875,1.5l-56,0 l0-64 q0-6.5 -4.75-11.25t-11.25-4.75t-11.25,4.75 l-128,128q-4.75,4.75 -4.75,11.25t 4.75,11.25l 128,128q 4.75,4.75 11.25,4.75t 11.25-4.75t 4.75-11.25l0-64 l 56,0 q 178.25,0 218.75-100.75q 13.25-33.5 13.25-83.25z" data-tags="reply, arrow, left" />
<glyph unicode="&#xf045;" d="M 352,136.75l0-64.75 q0-29.75 -21.125-50.875t-50.875-21.125l-208,0 q-29.75,0 -50.875,21.125t-21.125,50.875l0,208 q0,29.75 21.125,50.875t 50.875,21.125l 63.75,0 l0,0 q 3.25,0 5.625-2.375t 2.375-5.625q0-6.75 -6.5-8q-19.25-6.5 -33.25-15q-2.5-1 -4-1l-28,0 q-16.5,0 -28.25-11.75t-11.75-28.25l0-208 q0-16.5 11.75-28.25t 28.25-11.75l 208,0  q 16.5,0 28.25,11.75t 11.75,28.25l0,53.5 q0,4.75 4.5,7.25q 7,3.25 13.5,9.25q 4,4 8.75,2q 5.25-2.25 5.25-7.25zM 411.25,260.75l-96-96q-4.5-4.75 -11.25-4.75q-3,0 -6.25,1.25q-9.75,4.25 -9.75,14.75l0,48 l-40,0 q-80.75,0 -109.5-32.75q-29.75-34.25 -18.5-118.25q 0.75-5.75 -5-8.5q-2-0.5 -3-0.5q-4,0 -6.5,3.25q-2.5,3.5 -5.25,7.75t-9.875,17.125t-12.375,24.875 t-9.625,28.5t-4.375,30.5q0,12.25 0.875,22.75t 3.5,22.5t 7,22t 11.75,20.375t 17.125,18.5t 23.625,15.375t 31.125,12.125t 39.875,7.625t 49.125,2.75l 40,0 l0,48 q0,10.5 9.75,14.75q 3.25,1.25 6.25,1.25q 6.5,0 11.25-4.75l 96-96q 4.75-4.75 4.75-11.25t-4.75-11.25z" horiz-adv-x="416" data-tags="share" />
<glyph unicode="&#xf017;" d="M 272,152l0-16 q0-3.25 -2.375-5.625t-5.625-2.375l-96,0 q-3.25,0 -5.625,2.375t-2.375,5.625l0,112 q0,3.25 2.375,5.625t 5.625,2.375l 16,0 q 3.25,0 5.625-2.375t 2.375-5.625l0-88 l 72,0 q 3.25,0 5.625-2.375t 2.375-5.625zM 320,160q0,26 -10.125,49.625t-27.375,40.875t-40.875,27.375t-49.625,10.125t-49.625-10.125 t-40.875-27.375t-27.375-40.875t-10.125-49.625t 10.125-49.625t 27.375-40.875t 40.875-27.375t 49.625-10.125t 49.625,10.125t 40.875,27.375t 27.375,40.875t 10.125,49.625zM 384,160q0-52.25 -25.75-96.375t-69.875-69.875t-96.375-25.75t-96.375,25.75t-69.875,69.875t-25.75,96.375t 25.75,96.375t 69.875,69.875 t 96.375,25.75t 96.375-25.75t 69.875-69.875t 25.75-96.375z" horiz-adv-x="384" data-tags="time, clock" />
<glyph unicode="&#xf01e;" d="M 384,320l0-112 q0-6.5 -4.75-11.25t-11.25-4.75l-112,0 q-10.5,0 -14.75,10q-4.25,9.75 3.5,17.25l 34.5,34.5q-37,34.25 -87.25,34.25q-26,0 -49.625-10.125t-40.875-27.375t-27.375-40.875t-10.125-49.625t 10.125-49.625t 27.375-40.875t 40.875-27.375t 49.625-10.125q 42.25,0 76,24.875t 46.25,65.375q 1.75,5.75 7.5,5.75l 49.75,0  q 4,0 6.25-3q 2.5-3.25 1.75-6.75q-9.75-43.75 -36.875-78t-66.5-53.25t-84.125-19q-39,0 -74.5,15.25t-61.25,41t-41,61.25t-15.25,74.5t 15.25,74.5t 41,61.25t 61.25,41t 74.5,15.25q 36.75,0 71.125-13.875t 61.125-39.125l 32.5,32.25q 7.25,7.75 17.5,3.5q 9.75-4.25 9.75-14.75z" horiz-adv-x="384" data-tags="repeat, loop, reload, refresh, synchronize" />
<glyph unicode="&#xf067;" d="M 352,200l0-48 q0-10 -7-17t-17-7l-104,0 l0-104 q0-10 -7-17t-17-7l-48,0 q-10,0 -17,7t-7,17l0,104 l-104,0 q-10,0 -17,7t-7,17l0,48 q0,10 7,17t 17,7l 104,0 l0,104 q0,10 7,17t 17,7l 48,0 q 10,0 17-7t 7-17l0-104 l 104,0 q 10,0 17-7t 7-17z" horiz-adv-x="352" data-tags="plus, add, sum" />
<glyph unicode="&#xf0ed;" d="M 320,152q0,3.5 -2.25,5.75t-5.75,2.25l-56,0 l0,88 q0,3.25 -2.375,5.625t-5.625,2.375l-48,0 q-3.25,0 -5.625-2.375t-2.375-5.625l0-88 l-56,0 q-3.25,0 -5.625-2.375t-2.375-5.625q0-3.5 2.25-5.75l 88-88q 2.25-2.25 5.75-2.25t 5.75,2.25l 87.75,87.75q 2.5,3 2.5,6zM 480,96q0-39.75 -28.125-67.875t-67.875-28.125l-272,0  q-46.25,0 -79.125,32.875t-32.875,79.125q0,32.5 17.5,60t 47,41.25q-0.5,7.5 -0.5,10.75q0,53 37.5,90.5t 90.5,37.5q 39,0 71.375-21.75t 47.125-57.75q 17.75,15.5 41.5,15.5q 26.5,0 45.25-18.75t 18.75-45.25q0-19 -10.25-34.5q 32.5-7.75 53.375-33.875t 20.875-59.625z" horiz-adv-x="480" data-tags="cloud-download, download, store, save" />
<glyph unicode="&#xf08e;" d="M 352,152l0-80 q0-29.75 -21.125-50.875t-50.875-21.125l-208,0 q-29.75,0 -50.875,21.125t-21.125,50.875l0,208 q0,29.75 21.125,50.875t 50.875,21.125l 176,0 q 3.5,0 5.75-2.25t 2.25-5.75l0-16 q0-3.5 -2.25-5.75t-5.75-2.25l-176,0 q-16.5,0 -28.25-11.75t-11.75-28.25l0-208 q0-16.5 11.75-28.25t 28.25-11.75l 208,0 q 16.5,0 28.25,11.75t 11.75,28.25l0,80  q0,3.5 2.25,5.75t 5.75,2.25l 16,0 q 3.5,0 5.75-2.25t 2.25-5.75zM 448,368l0-128 q0-6.5 -4.75-11.25t-11.25-4.75t-11.25,4.75l-44,44l-163-163q-2.5-2.5 -5.75-2.5t-5.75,2.5l-28.5,28.5q-2.5,2.5 -2.5,5.75t 2.5,5.75l 163,163l-44,44q-4.75,4.75 -4.75,11.25t 4.75,11.25t 11.25,4.75l 128,0 q 6.5,0 11.25-4.75t 4.75-11.25z" data-tags="external-link, blank, out, popout" />
<glyph unicode="&#xf111;" d="M 384,160q0-52.25 -25.75-96.375t-69.875-69.875t-96.375-25.75t-96.375,25.75t-69.875,69.875t-25.75,96.375t 25.75,96.375t 69.875,69.875t 96.375,25.75t 96.375-25.75t 69.875-69.875t 25.75-96.375z" horiz-adv-x="384" data-tags="circle" />
<glyph unicode="&#xf085;" d="M 224,160q0,26.5 -18.75,45.25t-45.25,18.75t-45.25-18.75t-18.75-45.25t 18.75-45.25t 45.25-18.75t 45.25,18.75t 18.75,45.25zM 416,32q0,13 -9.5,22.5t-22.5,9.5t-22.5-9.5t-9.5-22.5q0-13.25 9.375-22.625t 22.625-9.375t 22.625,9.375t 9.375,22.625zM 416,288q0,13 -9.5,22.5t-22.5,9.5t-22.5-9.5t-9.5-22.5q0-13.25 9.375-22.625t 22.625-9.375 t 22.625,9.375t 9.375,22.625zM 320,182.75l0-46.25 q0-2.5 -1.75-4.875t-4-2.625l-38.75-6q-2.75-8.75 -8-19q 8.5-12 22.5-28.75q 1.75-2.5 1.75-5q0-3 -1.75-4.75q-5.75-7.5 -20.625-22.375t-19.625-14.875q-2.75,0 -5.25,1.75l-28.75,22.5q-9.25-4.75 -19.25-7.75q-2.75-27 -5.75-38.75q-1.75-6 -7.5-6l-46.5,0 q-2.75,0 -5,1.875t-2.5,4.375 l-5.75,38.25q-8.5,2.5 -18.75,7.75l-29.5-22.25q-1.75-1.75 -5-1.75q-2.75,0 -5.25,2q-36,33.25 -36,40q0,2.25 1.75,4.75q 2.5,3.5 10.25,13.25t 11.75,15.25q-5.75,11 -8.75,20.5l-38,6q-2.5,0.25 -4.25,2.375t-1.75,4.875l0,46.25 q0,2.5 1.75,4.875t 4,2.625l 38.75,6q 2.75,8.75 8,19q-8.5,12 -22.5,28.75q-1.75,2.75 -1.75,5q0,3 1.75,5q 5.5,7.5 20.5,22.25t 19.75,14.75q 2.75,0 5.25-1.75 l 28.75-22.5q 8.5,4.5 19.25,8q 2.75,27 5.75,38.5q 1.75,6 7.5,6l 46.5,0 q 2.75,0 5-1.875t 2.5-4.375l 5.75-38.25q 8.5-2.5 18.75-7.75l 29.5,22.25q 2,1.75 5,1.75q 2.75,0 5.25-2q 36-33.25 36-40q0-2.25 -1.75-4.75q-3-4 -10.5-13.5t-11.25-15q 5.75-12 8.5-20.5l 38-5.75q 2.5-0.5 4.25-2.625t 1.75-4.875zM 480,49.5l0-35 q0-4 -37.25-7.75 q-3-6.75 -7.5-13q 12.75-28.25 12.75-34.5q0-1 -1-1.75q-30.5-17.75 -31-17.75q-2,0 -11.5,11.75t-13,17q-5-0.5 -7.5-0.5t-7.5,0.5q-3.5-5.25 -13-17t-11.5-11.75q-0.5,0 -31,17.75q-1,0.75 -1,1.75q0,6.25 12.75,34.5q-4.5,6.25 -7.5,13q-37.25,3.75 -37.25,7.75l0,35 q0,4 37.25,7.75q 3.25,7.25 7.5,13q-12.75,28.25 -12.75,34.5q0,1 1,1.75q 1,0.5 8.75,5 t 14.75,8.5t 7.5,4q 2,0 11.5-11.625t 13-16.875q 5,0.5 7.5,0.5t 7.5-0.5q 12.75,17.75 23,28l 1.5,0.5q 1,0 31-17.5q 1-0.75 1-1.75q0-6.25 -12.75-34.5q 4.25-5.75 7.5-13q 37.25-3.75 37.25-7.75zM 480,305.5l0-35 q0-4 -37.25-7.75q-3-6.75 -7.5-13q 12.75-28.25 12.75-34.5q0-1 -1-1.75q-30.5-17.75 -31-17.75q-2,0 -11.5,11.75t-13,17 q-5-0.5 -7.5-0.5t-7.5,0.5q-3.5-5.25 -13-17t-11.5-11.75q-0.5,0 -31,17.75q-1,0.75 -1,1.75q0,6.25 12.75,34.5q-4.5,6.25 -7.5,13q-37.25,3.75 -37.25,7.75l0,35 q0,4 37.25,7.75q 3.25,7.25 7.5,13q-12.75,28.25 -12.75,34.5q0,1 1,1.75q 1,0.5 8.75,5t 14.75,8.5t 7.5,4q 2,0 11.5-11.625t 13-16.875q 5,0.5 7.5,0.5t 7.5-0.5q 12.75,17.75 23,28l 1.5,0.5q 1,0 31-17.5 q 1-0.75 1-1.75q0-6.25 -12.75-34.5q 4.25-5.75 7.5-13q 37.25-3.75 37.25-7.75z" horiz-adv-x="480" data-tags="cogs, settings, options, preferences, gears" />
<glyph unicode="&#xf05e;" d="M 320,160q0,34.75 -17.75,65l-175.25-175.25q 30.25-17.75 65-17.75q 26,0 49.625,10.125t 40.875,27.375t 27.375,40.875t 10.125,49.625zM 81.75,95l 175.25,175.25q-30.25,17.75 -65,17.75q-26,0 -49.625-10.125t-40.875-27.375t-27.375-40.875t-10.125-49.625q0-34.75 17.75-65zM 384,160q0-52.25 -25.75-96.375 t-69.875-69.875t-96.375-25.75t-96.375,25.75t-69.875,69.875t-25.75,96.375t 25.75,96.375t 69.875,69.875t 96.375,25.75t 96.375-25.75t 69.875-69.875t 25.75-96.375z" horiz-adv-x="384" data-tags="ban-circle, block, forbidden" />
<glyph unicode="&#xf004;" d="M 224-32q-6.5,0 -11,4.5l-156,150.5q-2.5,2 -6.875,6.5t-13.875,16.375t-17,24.375t-13.375,30.25t-5.875,34.5q0,55 31.75,86t 87.75,31q 15.5,0 31.625-5.375t 30-14.5t 23.875-17.125t 19-17q 9,9 19,17t 23.875,17.125t 30,14.5t 31.625,5.375q 56,0 87.75-31t 31.75-86q0-55.25 -57.25-112.5l-155.75-150 q-4.5-4.5 -11-4.5z" data-tags="heart, love, like" />
<glyph unicode="&#xe000;" d="M 447.33,160  m0,0,c 0-123.34 -99.986-223.33 -223.33-223.33 -123.34,0 -223.33,99.99 -223.33,223.33 0,123.343 99.99,223.33 223.33,223.33 C 347.343,383.33 447.33,283.343 447.33,160M 163.663,151.040 223.996,241.923 284.326,151.040 163.663,151.040 z M 223.996,287.239 86.002,79.36 l 28.224,0 31.396,49.28 156.761,0 31.378-49.28 28.238,0 -138.002,207.879 z" data-tags="appdotnet" />
<glyph unicode="&#xe001;" d="M 295.232,130.656c-16.083,0-29.12-18.054-29.12-40.298c0-22.266, 13.037-40.32, 29.12-40.32s 29.12,18.054, 29.12,40.32
	C 324.33,112.624, 311.293,130.656, 295.232,130.656z M 396.614,235.578c 3.315,8.176, 3.472,54.656-14.202,99.142c0,0-40.589-4.435-101.965-46.57
	c-12.88,3.562-34.675,5.331-56.448,5.331c-21.795,0-43.568-1.792-56.47-5.331C 106.176,330.285, 65.61,334.72, 65.61,334.72
	C 47.936,290.234, 48.070,243.754, 51.408,235.578C 30.621,212.998, 17.92,185.894, 17.92,148.867c0-160.966, 133.549-163.542, 167.261-163.542
	c 7.638,0, 22.826-0.022, 38.842-0.045c 16.016,0.022, 31.203,0.045, 38.797,0.045c 33.734,0, 167.261,2.576, 167.261,163.542
	C 430.080,185.894, 417.402,212.998, 396.614,235.578z M 224.627,5.104L 223.395,5.104 c-84.493,0-150.304,10.080-150.304,92.198c0,19.667, 6.966,37.923, 23.43,53.066
	c 27.53,25.245, 74.054,11.872, 126.874,11.872c 0.202,0, 0.426,0, 0.627,0.022c 0.224,0, 0.426-0.022, 0.605-0.022c 52.819,0, 99.366,13.373, 126.874-11.872
	c 16.464-15.142, 23.408-33.398, 23.408-53.066C 374.909,15.184, 309.142,5.104, 224.627,5.104z M 152.79,130.656c-16.083,0-29.12-18.054-29.12-40.298
	c0-22.266, 13.037-40.32, 29.12-40.32s 29.12,18.054, 29.12,40.32C 181.91,112.624, 168.874,130.656, 152.79,130.656z" data-tags="github, social" />
<glyph unicode="&#xe002;" d="M 430.080,287.837c-15.187-6.742-31.472-11.267-48.586-13.328c 17.472,10.461, 30.89,27.037, 37.184,46.771c-16.33-9.677-34.429-16.733-53.67-20.518
	c-15.434,16.442-37.408,26.701-61.734,26.701c-46.704,0-84.56-37.856-84.56-84.538c0-6.63, 0.739-13.082, 2.195-19.264
	c-70.269,3.517-132.586,37.184-174.272,88.346C 39.334,299.53, 35.146,284.992, 35.146,269.491c0-29.344, 14.941-55.216, 37.632-70.381
	c-13.866,0.448-26.902,4.234-38.304,10.573c0-0.358,0-0.694,0-1.053c0-40.97, 29.165-75.13, 67.827-82.925c-7.078-1.926-14.56-2.957-22.288-2.957
	c-5.443,0-10.73,0.515-15.904,1.501c 10.752-33.6, 42-58.038, 78.982-58.71c-28.941-22.691-65.386-36.198-105.011-36.198
	c-6.832,0-13.552,0.403-20.16,1.187c 37.408-23.99, 81.85-37.99, 129.629-37.99c 155.523,0, 240.576,128.845, 240.576,240.598
	c0,3.651-0.067,7.302-0.246,10.931C 404.41,255.984, 418.723,270.88, 430.080,287.837z" data-tags="twitter, social" />
<glyph unicode="&#xe003;" d="M 336,291.51l-63.974,0 c-7.571,0-16.016-9.946-16.016-23.274L 256.010,222.048 L 336,222.048 l0-65.856 l-79.99,0 L 256.010-41.6 L 180.477-41.6 l0,197.77 L 112,156.17 L 112,222.048 l 68.477,0 L 180.477,260.8 
	c0,55.574, 38.573,100.8, 91.526,100.8L 336,361.6 L 336,291.51 z" data-tags="facebook, social" />
<glyph unicode="&#xe004;" d="M 44.576,258.806c0-33.443, 11.178-57.613, 33.197-71.792c 18.032-11.626, 38.976-13.373, 49.862-13.373c 2.643,0, 4.749,0.112, 6.227,0.202
	c0,0-3.45-22.467, 13.216-44.71l-0.762,0.022c-28.874,0-123.066-6.048-123.066-83.485c0-78.781, 86.509-82.768, 103.846-82.768
	c 1.366,0, 2.15,0.022, 2.15,0.022c 0.202,0, 1.434-0.045, 3.539-0.045c 11.133,0, 39.917,1.389, 66.662,14.403
	c 34.675,16.822, 52.282,46.122, 52.282,87.024c0,39.536-26.79,63.056-46.368,80.259c-11.939,10.483-22.266,19.533-22.266,28.336
	c0,8.96, 7.526,15.702, 17.069,24.237c 15.411,13.798, 29.971,33.443, 29.971,70.582c0,32.659-4.234,54.566-30.33,68.454
	c 2.733,1.389, 12.342,2.397, 17.114,3.069c 14.134,1.926, 34.81,4.122, 34.81,15.658L 251.731,357.12 L 148.736,357.12 C 147.706,357.098, 44.576,353.267, 44.576,258.806z
	 M 210.851,56.915c 1.971-31.494-24.976-54.746-65.43-57.68c-41.082-3.024-74.928,15.478-76.899,46.973c-0.941,15.12, 5.69,29.926, 18.704,41.731
	c 13.216,11.939, 31.315,19.309, 51.050,20.787c 2.33,0.134, 4.637,0.246, 6.944,0.246C 183.232,108.973, 208.992,86.618, 210.851,56.915z M 183.949,280.378
	c 10.102-35.549-5.152-72.71-29.456-79.565C 151.693,200.029, 148.803,199.626, 145.891,199.626c-22.288,0-44.352,22.534-52.528,53.581
	C 88.794,270.656, 89.152,285.888, 94.394,300.56C 99.546,314.963, 108.797,324.73, 120.445,328c 2.8,0.806, 5.712,1.187, 8.624,1.187
	C 155.949,329.187, 173.242,318.032, 183.949,280.378z M 357.526,202.963l0,67.2 l-42.56,0 l0-67.2 l-67.2,0 l0-42.56 l 67.2,0 l0-67.2 l 42.56,0 l0,67.2 l 67.2,0 l0,42.56 L 357.526,202.963 z" data-tags="googleplus, social" />
<glyph unicode="&#xe005;" d="M 192.998,87.693C 181.238,26.026, 166.88-33.11, 124.32-64c-13.126,93.229, 19.286,163.229, 34.339,237.552
	c-25.67,43.232, 3.091,130.189, 57.254,108.752c 66.64-26.365-57.702-160.675, 25.76-177.453c 87.158-17.517, 122.73,151.2, 68.701,206.058
	C 232.288,390.16, 83.059,312.746, 101.427,199.334c 4.458-27.731, 33.107-36.154, 11.446-74.413c-49.974,11.066-64.893,50.49-62.966,103.040
	C 52.998,313.955, 127.187,374.166, 201.6,382.499c 94.125,10.55, 182.448-34.541, 194.611-123.066c 13.731-99.904-42.448-208.118-143.114-200.323
	C 225.837,61.194, 214.39,74.701, 192.998,87.693z" data-tags="pinterest, social" />
<glyph unicode="&#xe006;" d="M 125.418,192.659c0,36.669, 9.722,59.987, 42.314,65.229c 11.379,2.24, 35.078,1.434, 50.154,1.434l0-56 c0-0.493, 0.067-1.411, 0.202-1.882
	C 218.691,199.2, 220.73,197.52, 223.171,197.52c 1.389,0, 2.666,0.717, 4.010,2.016l 139.664,139.642L 273.078,339.2L 169.098,339.2 C 86.8,339.2, 44.8,291.802, 44.8,203.322l0-185.651 
	l 80.618,80.685L 125.418,192.659 z M 322.605,221.622l0-94.282 c0-36.669-9.744-60.010-42.336-65.229c-11.379-2.24-35.056-1.434-50.131-1.434l0,56 
	c0,0.493-0.090,1.411-0.202,1.882c-0.627,2.262-2.688,3.92-5.13,3.942c-1.389,0-2.643-0.717-4.010-2.038l-139.664-139.619L 174.922-19.2
	l 104.003,0 C 361.2-19.2, 403.2,28.176, 403.2,116.678L 403.2,302.33 L 322.605,221.622z" data-tags="flattr, social" />
<glyph unicode="&#xe007;" d="M 420.448,153.28l-179.738,179.894c-9.184,9.542-24.214,9.542-33.398,0L 27.552,153.28c-9.206-9.52-5.779-17.338, 7.616-17.338l 37.475,0 l0-138.163 
		c0-9.968, 0.426-18.122, 18.458-18.122l 87.248,0 l0,138.611 l 91.28,0 l0-138.611 l 91.594,0 c 13.754,0, 14.134,8.131, 14.134,18.122l0,138.163 l 37.453,0 
		C 426.182,135.942, 429.632,143.738, 420.448,153.28z" data-tags="house, home, building" />
<glyph unicode="&#xe008;" d="M 35.706,265.594c 10.931-5.891, 162.378-87.226, 168.022-90.25C 209.35,172.32, 216.653,170.864, 224,170.864c 7.37,0, 14.672,1.456, 20.294,4.502
		c 5.645,3.024, 157.069,84.358, 168,90.25C 423.248,271.485, 433.597,289.92, 413.504,289.92L 34.518,289.92 C 14.426,289.92, 24.752,271.485, 35.706,265.594z M 416.931,220.794
		c-12.432-6.496-165.021-86.262-172.637-90.25S 231.37,126.042, 224,126.042c-7.347,0-12.656,0.515-20.272,4.502S 43.501,214.32, 31.091,220.794
		C 22.333,225.363, 22.4,220.010, 22.4,215.888c0-4.122,0-164.304,0-164.304C 22.4,42.176, 34.922,30.080, 44.621,30.080l 358.781,0 c 9.722,0, 22.198,12.096, 22.198,21.482
		c0,0,0,160.182,0,164.304C 425.6,220.010, 425.69,225.363, 416.931,220.794z" data-tags="mail, email, message, letter, envelope, contact" />
<glyph unicode="&#xe009;" d="M 89.6,3.2c0-24.73, 20.070-44.8, 44.8-44.8c 24.752,0, 44.8,20.070, 44.8,44.8s-20.048,44.8-44.8,44.8C 109.67,48, 89.6,27.93, 89.6,3.2z M 313.6,3.2c0-24.73, 20.070-44.8, 44.8-44.8
	c 24.752,0, 44.8,20.070, 44.8,44.8s-20.048,44.8-44.8,44.8C 333.67,48, 313.6,27.93, 313.6,3.2z M 169.053,109.107L 416.998,179.936C 421.725,181.302, 425.6,186.432, 425.6,191.36L 425.6,314.56 L 109.76,314.56 L 109.76,352.64 
	C 109.76,357.568, 105.75,361.6, 100.8,361.6L 31.36,361.6 C 26.432,361.6, 22.4,357.568, 22.4,352.64L 22.4,316.8 l 43.523,0 l 44.083-202.877L 114.262,92.8l0-33.6 c0-4.928, 4.032-8.96, 8.938-8.96L 134.4,50.24 l 224,0 l 58.262,0 
	C 421.568,50.24, 425.6,54.272, 425.6,59.2L 425.6,92.8 L 173.645,92.8 C 147.907,92.8, 147.37,102.88, 169.053,109.107z" data-tags="cart, shop, buy, purchase, ecommerce" />
<glyph unicode="&#x20;" horiz-adv-x="224" />
</font>
</defs>
</svg>
